<?xml version="1.0" standalone="no"?>
<!DOCTYPE svg PUBLIC "-//W3C//DTD SVG 1.1//EN" "http://www.w3.org/Graphics/SVG/1.1/DTD/svg11.dtd" >
<svg xmlns="http://www.w3.org/2000/svg">
<metadata>Generated by IcoMoon</metadata>
<defs>
<font id="dp-icons" horiz-adv-x="1024">
<font-face units-per-em="1024" ascent="960" descent="-64" />
<missing-glyph horiz-adv-x="1024" />
<glyph unicode="&#x20;" horiz-adv-x="512" d="" />
<glyph unicode="&#xe900;" glyph-name="mail" horiz-adv-x="1448" d="M1271.383-64h-1094.575c-97.604 0.11-176.698 79.204-176.808 176.798v670.394c0.11 97.604 79.204 176.698 176.798 176.808h1094.586c97.604-0.11 176.698-79.204 176.808-176.798v-670.394c-0.11-97.604-79.204-176.698-176.798-176.808h-0.010zM176.808 901.461c-65.247-0.064-118.12-52.954-118.156-118.201v-670.451c0.027-65.268 52.898-118.177 118.148-118.269h1094.584c65.257 0.064 118.141 52.948 118.205 118.198v670.454c-0.064 65.257-52.948 118.141-118.198 118.205h-0.006zM1263.273 80.401l-341.966 338.925 306.823 303.847-41.29 41.644-464.467-459.929-460.959 456.534-41.29-41.708 300.258-297.394-345.007-341.918 41.29-41.644 345.426 342.32 160.218-158.722 3.508 3.588 0.129-0.129 153.701 152.221 342.336-339.279 41.29 41.644z" />
<glyph unicode="&#xe901;" glyph-name="calendar" d="M1024 841.671v-905.671h-1024v905.671c10.388 16.384 25.543 21.276 44.373 20.617 27.307-0.944 54.613-0.239 81.92-0.239h65.434v-48.208h-141.38v-242.961h923.113v244.133h-142.882v47.024c51.473 0 101.41-0.535 151.324 0.284 18.352 0.307 32.131-5.484 42.098-20.651zM244.622 376.149h144.498v144.077h-144.498zM779.469 520.033h-144.703v-144.407h144.703zM244.622 326.19v-144.919h144.384v144.919zM778.775 180.258v144.862h-144.122v-144.862zM583.828 375.512v144.566h-144.065v-144.566zM194.037 520.385h-143.735v-144.725h143.735zM829.952 375.603h143.758v144.737h-143.758zM584.442-13.824v144.043h-144.862v-144.043zM50.199 180.622h143.292v145.021h-143.292zM973.733 180.452v144.907h-143.849v-144.953zM389.882 129.877h-144.964v-143.36h144.964zM634.618 130.526v-144.202h144.759v144.236zM193.661-14.882v144.395h-144.646c0-41.95 0-82.091 0-122.22 0-15.212 7.964-22.13 22.596-22.153 40.107-0.068 80.247-0.023 122.049-0.023zM974.837 130.059h-144.748v-144.657c42.962 0 84.56-0.796 126.043 0.842 6.463 0.262 17.613 11.514 17.874 18.022 1.638 41.449 0.831 82.99 0.831 125.793zM314.027 960c20.901-10.001 28.513-26.601 27.716-49.55-1.138-33.997 0-68.062-0.421-102.081-0.41-31.494-15.019-43.873-50.062-43.622-33.508 0.228-46.262 12.106-46.49 44.009-0.239 34.031 1.138 68.119-0.466 102.081-0.944 21.857 5.359 38.070 24.212 49.163zM741.831 960c28.183-11.127 39.822-31.334 37.808-61.918-1.9-27.819-0.080-55.876-0.626-83.82s-19.695-47.923-45.841-49.163c-25.031-1.138-48.697 18.637-49.971 45.568-1.627 34.668-1.195 69.495 0 104.209 0.74 22.892 16.998 35.544 35.874 45.124zM628.144 860.319v-44.612h-235.998v44.612z" />
<glyph unicode="&#xe902;" glyph-name="cuisine" horiz-adv-x="1141" d="M628.666 512.83l42.932-38.151q71.254-63.238 142.47-126.502c22.931-20.433 24.276-58.596 3.158-80.792-22.83-24.098-60.321-25.633-82.542-2.435-18.505 19.316-35.767 39.812-53.548 59.814q-53.688 60.423-107.312 120.896c-0.685 0.786-1.268 1.623-2.296 2.841-9.982-11.212-19.608-22.043-29.171-32.875-42.958-48.424-86.245-96.595-128.721-145.4-21.79-24.999-54.741-26.711-76.72-12.556-31.568 20.293-35.64 65.952-7.61 91.014q65.166 58.216 130.7 116c5.073 4.528 10.286 5.34 14.814 2.537 3.133-1.828 5.206-5.173 5.206-9.003 0-1.167-0.192-2.288-0.547-3.335l0.022 0.073c-1.262-2.952-3.115-5.435-5.425-7.396l-0.028-0.024q-49.896-44.581-99.994-88.947c-9.69-8.599-19.431-17.122-29.082-25.759-15.55-13.951-16.387-36.781-1.941-51.367 14.751-14.827 37.707-14.231 51.722 1.535q81.515 91.763 163.004 183.627 46.687 52.61 93.411 105.156c5.733 6.443 9.030 7.115 17.072 3.805 22.995-9.538 47.562-4.515 65.242 13.19q69.96 70.024 139.997 139.984c7.001 7.001 15.968 6.342 19.659-1.268 2.334-4.807 1.268-9.309-3.095-13.736q-33.788-33.788-67.576-67.576c-24.504-24.504-48.83-49.185-73.562-73.562-22.449-22.094-49.363-28.588-79.714-20.965-3.488 0.888-5.619 0.748-8.092-2.131-10.578-12.214-21.447-24.288-32.431-36.692zM586.38 465.217c1.116-1.344 1.763-2.169 2.448-2.955l99.271-111.827q29.793-33.534 59.611-67.069c8.637-9.665 19.481-14.345 32.393-12.087 14.497 2.537 24.453 11.009 28.474 25.366 4.147 14.814-0.495 27.117-11.859 37.187q-82.441 73.118-164.805 146.288c-5.961 5.289-11.973 10.54-18.162 15.981zM571.338 563.626c14.218 12.607 28.017 24.707 41.55 37.111 1.205 1.103 1.268 4.35 0.723 6.342-6.76 26.229-2.663 50.492 14.091 71.837 7.407 9.449 16.425 17.668 24.948 26.203q61.209 61.31 122.519 122.519c2.993 3.006 6.151 5.264 10.552 4.642 4.38-0.38 7.978-3.351 9.276-7.357l0.021-0.076c1.687-4.908 0.076-8.878-3.424-12.328q-28.423-28.385-56.808-56.808l-83.176-83.163c-19.025-19.025-23.718-42.387-13.495-67.386 2.6-6.342 1.763-10.438-3.412-15.042q-48.196-42.907-96.506-85.725c-6.012-5.34-11.998-5.010-17.465 1.065-12.683 14.053-25.138 28.233-37.694 42.349-1.027 1.154-2.105 2.27-3.234 3.475-15.068-6.988-30.541-11.415-47.105-11.732-29.717-0.66-56.072 8.371-77.71 28.588-31.239 29.171-55.552 63.314-69.149 104.281-7.724 23.236-11.047 46.928-4.946 71.216 8.231 32.723 35.094 55.489 68.692 58.71 31.251 3.006 59.941-5.403 87.374-19.19 29.171-14.674 55.54-33.699 76.733-58.545 30.338-35.589 35.678-75.883 17.756-119.069-1.433-3.463-1.459-5.289 1.56-7.889 12.785-11.072 25.341-22.475 38.328-34.029zM554.558 548.673c-15.093 13.457-29.704 26.482-44.328 39.495-7.305 6.494-7.914 10.147-3.057 18.682 19.545 34.422 15.156 76.099-11.846 105.042-19.573 21.081-42.692 38.54-68.464 51.498l-1.382 0.63c-22.348 11.009-45.659 18.2-71.114 16.387-26.914-1.915-46.712-18.644-52.508-44.898-4.439-20.204-0.698-39.66 5.923-58.698 11.415-32.837 31.403-60.105 54.817-85.396 28.74-31.036 75.059-39.711 113.413-16.691 5.758 3.463 10.781 2.422 15.448-2.79 11.415-12.785 22.754-25.633 34.143-38.455 1.687-1.902 3.412-3.805 5.251-5.758zM723.168 645.762c1.053 1.547 2.689 5.073 5.251 7.61q53.815 54.119 107.883 108.035l3.703 3.703c5.454 5.365 11.859 5.796 16.729 1.141s4.414-11.415-0.824-16.704q-33.166-33.255-66.396-66.422-23.375-23.388-46.725-46.763c-3.742-3.805-7.94-5.073-12.848-3.044-4.464 1.814-6.735 5.327-6.773 12.442zM703.522 662.288c-5.34 0.989-8.701 3.133-10.628 7.344-0.705 1.376-1.119 3.003-1.119 4.726 0 2.903 1.174 5.532 3.072 7.438v0c3.044 3.374 6.342 6.506 9.563 9.728l103.862 103.85c5.695 5.695 12.29 6.342 17.135 1.725s4.401-11.859-1.268-17.579q-55.806-55.806-111.701-111.612c-2.486-2.384-5.986-3.754-8.916-5.619zM577.35 835.261c5.91 8.054 10.946 16.932 17.845 24.035 91.877 94.439 233.015 122.532 353.353 70.721 114.45-49.843 193.013-161.965 193.013-292.436 0-4.242-0.083-8.464-0.248-12.666l0.019 0.604c-3.006-85.282-36.020-157.271-96.050-217.313q-226.115-226.065-452.37-452.015c-6.126-6.113-12.911-11.567-22.601-20.192-14.421 15.689-27.345 30.909-41.423 45-143.928 144.182-288.593 287.667-431.963 432.356-89.315 90.253-117.966 199.252-81.515 320.123 36.071 119.577 119.551 194.56 242.337 219.495 108.986 22.132 204.96-8.485 285.752-85.294 8.954-8.51 17.477-17.477 26.267-26.178 0.878-0.664 1.882-1.235 2.956-1.668l0.088-0.031zM571.731 6.645c7.61 6.595 13.736 11.187 19.025 16.488q209.272 209.095 418.43 418.303c63.162 63.061 90.329 138.652 81.806 227.549-12.062 125.652-126.096 232.825-252.255 237.251-82.25 2.892-152.363-24.098-210.223-82.593-18.061-18.251-35.513-37.060-54.538-56.947-23.299 23.756-43.567 45.076-64.519 65.686-96.95 95.466-249.617 104.788-354.849 22.018-129.089-101.592-140.783-287.717-24.821-404.758 88.249-89.099 177.272-177.437 265.928-266.194 58.14-58.279 116.19-116.71 176.017-176.803z" />
<glyph unicode="&#xe903;" glyph-name="culture" d="M277.618 960h104.676c4.995-1.274 9.944-3.413 14.996-3.698 80.725-5.006 157.992-24.917 233.654-52.565 20.799-7.6 29.582-20.309 29.309-42.496-0.774-68.198 1.57-136.465-0.626-204.595q-10.604-328.329-308.884-468.15c-15.269-7.122-28.001-6.337-42.917 0.307-136.42 60.848-231.47 160.495-279.836 302.034-13.551 39.652-18.887 82.102-27.989 123.278v268.516c11.548 7.669 22.118 18.364 34.816 22.46 42.815 13.801 85.959 27.056 129.775 37.046 37.103 8.465 75.31 12.095 113.027 17.863zM333.631 429.67c46.444 0.478 92.911 17.647 132.073 53.282 17.408 15.838 19.342 33.314 6.064 47.514-12.777 13.653-27.762 13.028-45.83-1.991-61.611-51.2-130.844-51.416-191.34-0.501-18.785 15.804-34.782 16.27-47.479 1.399-12.334-14.45-9.603-31.346 8.26-47.4 37.49-33.69 81.658-50.836 138.251-52.304zM209.215 659.752c19.706 0 39.413-0.137 59.164 0 18.853 0.171 29.935 9.99 31.607 28.581 1.582 17.624-11.469 30.652-31.334 30.936-38.684 0.558-77.369 0.489-115.962 0-20.059-0.239-33.303-12.663-33.337-29.582s13.653-29.514 33.064-29.946c18.898-0.319 37.854 0.011 56.798 0.011zM448.432 659.752c19.706 0 39.424-0.33 59.164 0.091 19.149 0.41 34.338 13.778 32.779 29.992-1.729 17.897-11.537 29.491-30.948 29.582q-59.164 0.25-118.249 0c-18.933-0.091-29.912-10.012-31.221-28.843-1.229-17.601 11.924-30.185 31.664-30.72 18.898-0.489 37.854-0.102 56.809-0.102zM682.667-64c-43.566 26.613-88.747 50.881-130.253 80.441-47.787 34.065-91.136 88.747-117.191 137.125 206.689 127.499 301.739 314.311 288.176 557.727 64.091 0 124.166-10.536 183.444-25.634 33.079-8.565 60.369-17.573 86.903-28.079l-4.983 1.74c12.72-4.881 23.518-14.791 35.18-22.448v-268.516c-1.252-4.233-3.197-8.397-3.675-12.72-15.872-144.577-81.408-261.871-197.040-349.389-36.193-27.432-78.347-47.047-117.806-70.246zM698.22 291.783c-55.819 0.125-101.001-16.316-139.31-50.369-18.045-16.043-20.161-33.166-7.543-47.525s28.695-13.653 47.559 2.185c56.969 47.98 131.425 48.401 188.644 1.058 20.4-16.873 36.602-17.806 49.3-2.822 12.516 14.791 9.262 32.779-9.978 49.084-38.411 32.518-82.785 48.913-128.671 48.39zM813.295 413.946c20.48 0 40.892-0.466 61.315 0.137 17.943 0.535 28.922 11.696 29.377 28.444 0.489 17.829-10.012 30.424-29.264 30.72-40.107 0.592-80.236 0.478-120.343 0-18.83-0.193-30.254-10.627-30.219-29.503s11.31-29.195 30.106-29.753c19.661-0.535 39.356-0.125 59.028-0.046z" />
<glyph unicode="&#xe904;" glyph-name="eye" horiz-adv-x="1753" d="M0 313.267c82.779 89.159 178.74 164.568 285.098 223.498l5.854 2.976-196.318 280.004 45.213 31.655 199.104-283.316 196.747 75.192-120.23 272.874 49.927 22.246c1.773-3.409 3.351-6.058 4.578-8.863q58.44-132.561 116.743-265.18c2.61-5.961 4.558-10.052 12.954-8.065 79.049 18.759 159.365 28.207 240.479 31.168 3.117 0.117 6.234 0.487 10.402 0.818v271.725h55.264v-271.803c13.227-0.76 25.129-1.5 37.012-2.123 80.119-3.953 155.507-15.257 228.225-33.319l-8.102 1.703c8.844-2.143 12.233-0.097 15.759 7.967q53.219 122.042 107.139 243.771c1.558 3.545 3.234 7.052 5.493 11.961l50.356-22.441c-37.927-86.023-75.504-171.423-113.743-257.972 88.372-26.633 164.618-58.9 236.493-98.164l-6.397 3.2 199.299 283.666 45.291-31.596-196.182-279.712c94.096-57.404 175.176-123.686 246.127-199.56l0.605-0.654c-421.448-463.953-1230.682-544.327-1753.191-1.656zM116.081 319.111q371.949-333.106 865.18-291.147c250.901 21.564 469.271 120.366 656.239 291.828-213.169 179.118-455.83 275.524-735.269 285.439l91.731-250.063c2.324 3.534 4.789 7.772 7.040 12.14l0.382 0.815c11.104 26.123 21.545 52.596 33.116 78.407 10.87 24.194 21.428 48.7 34.947 71.491 12.72 21.428 33.428 34.051 58.44 39.914 2.221-3.896 4.208-7.208 6.058-10.597 68.92-127.418 48.7-292.199-49.206-399.182-52.713-57.524-117.25-92.607-195.617-99.523-130.321-11.513-242.583 67.4-293.231 167.761-57.349 113.626-57.738 228.675 0.857 342.846 1.539 3 2.805 6.117 5.24 11.435-182.118-46.537-342.515-129.522-485.907-251.563z" />
<glyph unicode="&#xe905;" glyph-name="hiking" horiz-adv-x="678" d="M82.654-64c-14.24 4.566-28.48 9.041-37.891 22.023-14.579 20.049-13.005 41.982-6.653 63.945 3.579 12.379 8.861 24.329 14.044 36.166 22.521 51.446 46.887 102.16 67.404 154.39 13.788 35.096 22.114 72.331 33.152 108.497 6.849 22.393 14.165 43.7 2.637 67.811-6.291 13.14-5.455 29.678-7.881 45.011-25.391-6.849-51.235-9.222-77.319-1.65-36.844 10.752-66.846 46.556-69.491 83.173-5.636 78.155 25.286 140.398 83.407 190.54 21.85 18.836 46.465 33.084 73.379 43.738 28.541 11.302 52.598 4.076 74.433-15.408 0.973-0.899 1.859-1.859 2.665-2.886l0.040-0.053c0.836-1.040 1.552-2.177 2.652-3.767 17.902 10.337 35.676 7.663 53.495 2.049 26.883-8.469 54.625-14.933 80.356-26.054 17.262-7.474 31.961-21.172 47.309-32.737q38.712-29.166 76.626-59.334c5.365-4.272 9.365-4.242 15.069-1.454q27.313 13.374 55.002 25.896c5.606 2.524 7.881 5.598 7.738 11.95-0.445 19.326-0.241 38.66-0.121 58.016 0.060 9.84 4.167 17.699 13.637 21.149 8.989 3.27 17.789 1.213 22.912-7.030 3.119-5.026 4.521-11.731 4.83-17.774 0.671-14.557 0.219-29.166 0.219-43.406 10.36 0 19.982 1.756 28.691-0.309 32.172-7.648 45.961-43.12 25.248-68.602-12.545-15.431-29.603-27.395-45.539-39.745-5.93-4.596-8.582-8.424-8.574-15.981q0.332-284.963 0.286-569.933c0-12.809-3.88-22.528-15.822-28.209h-9.938c-12.342 5.229-16.094 14.896-16.079 27.795q0.294 270.948 0.136 541.912v12.748c-16.448-10.036-31.585-18.422-45.81-28.126-28.375-19.356-55.68-15.958-82.578 2.479-21.421 14.677-42.57 29.761-63.87 44.619-2.26 1.59-4.754 2.878-7.369 4.438-0.866-2.042-1.59-3.217-1.869-4.483-8.989-40.875-17.736-81.802-27.124-122.579-1.364-5.93 0.226-9.117 4.069-12.907 33.905-33.468 67.132-67.69 101.716-100.443 22.491-21.293 29.776-46.948 26.16-76.099-8.672-69.965-17.563-139.923-27.817-209.67-5.146-35.058-15.822-67.969-55.605-79.692h-15.958c-1.823 0.663-3.594 1.597-5.47 1.959-21.669 4.121-37.236 18.354-40.114 40.136-1.386 9.477-2.177 20.419-2.177 31.545 0 6.376 0.26 12.691 0.77 18.935l-0.054-0.82q6.397 73.522 15.31 146.802c1.688 14.007-1.507 23.138-13.072 31.645-17.488 12.869-33.566 27.659-51.039 42.291-10.39-25.557-20.629-49.667-30.033-74.094-22.679-58.958-45.923-117.636-80.619-170.89-18.686-28.706-36.799-58.332-73.537-67.502zM369.507 9.838l0.957-0.068c0-5.658-0.196-11.302 0.053-16.975 0.264-6.080 0.836-12.055 8.288-14.24 7.798-2.306 13.72 0.882 16.576 7.384 4.521 10.232 9.215 20.833 11.038 31.75 4.762 28.511 8.024 57.262 11.844 85.939q8.19 61.338 16.259 122.662c2.494 19.16-1.884 34.892-17.103 49.178-36.437 34.199-71.013 70.365-106.787 105.28-9.689 9.456-12.733 19.635-9.478 32.398 2.464 9.652 4.521 19.401 6.691 29.128q23.214 104.549 46.367 209.128c2.856 12.937 1.19 16.478-10.782 20.049-24.186 7.203-48.492 13.969-72.851 20.547-10.383 2.795-14.903-0.203-17.699-10.27-9.305-33.589-19.025-67.057-27.802-100.789-11.445-43.956-24.11-87.732-32.587-132.276-7.972-41.922 6.269-77.605 40.031-105.483 48.605-40.031 96.442-81.026 144.663-121.441 8.378-7.015 12.387-15.348 11.226-26.22-2.381-22.167-4.762-44.333-7.015-66.515q-6.005-59.538-11.889-119.106zM105.174 468.75c7.881 1.070 16.033 1.213 23.583 3.421 12.65 3.692 25.399 7.346 29.663 23.018q24.932 91.68 50.843 183.089c3.089 10.925 1.085 19.793-7.218 26.989-8.484 7.354-17.631 10.345-29.279 5.824-24.514-9.627-45.627-22.555-64.035-38.52l0.271 0.23c-42.434-36.512-66.221-82.375-68.315-138.831-1.394-38.554 26.778-66.854 64.488-65.219zM195.664 320.2c-1.326-4.521-2.215-7.685-3.187-10.835-12.349-39.933-22.393-80.762-37.673-119.55-21.006-53.435-46.202-105.204-68.993-157.953-4.515-10.422-8.122-22.575-10.239-35.232l-0.129-0.933c-0.791-4.656 2.773-11.528 6.525-15.114 5.003-4.777 11.889-3.232 17.329 1.183 4.121 3.353 8.544 6.615 11.724 10.759 8.702 11.302 17.329 22.777 25.067 34.794 48.726 75.91 73.838 162.414 109.085 244.397 0.927 2.155-0.143 6.691-1.921 8.243-15.235 13.344-30.884 26.25-47.588 40.264zM393.595 637.523c-3.662-16.162-7.188-30.937-10.179-45.825-0.452-2.26 0.806-6.156 2.599-7.421q43.233-30.522 86.903-60.419c9.591-6.525 19.341-6.457 29.754 0.158 32.022 20.343 64.639 39.729 96.66 60.058 10.624 6.736 20.343 15.009 30.1 22.973 2.795 2.26 4.468 5.937 6.653 8.959l-1.748 3.104c-6.676-1.951-13.72-3.119-19.966-5.99-33.22-15.272-66.402-30.62-99.237-46.714-13.087-6.404-23.937-5.086-34.892 4.046-10.481 8.74-21.503 16.832-32.316 25.173-17.842 13.818-35.706 27.584-54.331 41.899zM392.653 960c12.748-4.423 26.265-7.361 38.102-13.562 42.841-22.34 65.806-67.886 59.199-114.743s-42.299-85.675-89.194-94.852c-6.666-1.401-14.325-2.202-22.172-2.202-58.389 0-106.407 44.402-112.13 101.283l-0.039 0.473c-6.028 61.030 38.509 114.336 94.648 122.059 1.243 0.166 2.396 1.017 3.601 1.545zM449.26 847.653c-0.234 39.699-31.57 70.681-71.254 70.674-36.128 0-70.372-27.599-70.96-71.292-0.52-38.968 33.031-71.359 71.578-71.043 39.092 0.375 70.637 32.151 70.637 71.296 0 0.128 0 0.256-0.001 0.384v-0.020z" />
<glyph unicode="&#xe906;" glyph-name="snowflake" d="M290.73 261.235c-14.187 2.958-28.442 5.688-42.526 8.976s-20.478 13.106-18.032 25.916c2.275 12.025 13.424 18.806 27.111 16.2 21.911-4.175 43.732-8.862 65.723-12.583 4.084-0.683 10.114 0.762 12.947 3.55 39.636 39.056 78.874 78.499 118.169 117.907 0.853 0.853 1.308 2.127 2.73 4.551-5.256 0.273-9.568 0.683-13.88 0.683-51.081 0-102.162-0.273-153.243 0.25-9.522 0.102-14.79-3.197-19.556-10.956-10.569-17.065-21.946-33.572-33.243-50.137-9.215-13.527-21.32-16.678-32.458-8.919-10.774 7.509-12.332 19.249-3.902 32.48 7.509 11.775 15.415 23.299 24.665 37.236-15.62 0-28.681 0.671-41.582-0.432-3.8-0.319-8.066-5.097-10.603-8.862-27.77-41.229-54.983-82.811-83.095-123.766-4.232-6.166-11.889-12.514-18.749-13.584-6.064-0.91-16.337 3.834-19.101 9.101-3.356 6.337-3.572 17.304-0.205 23.641 8.715 16.428 20.148 31.411 30.489 46.974 14.312 21.468 28.544 43.015 44.414 66.974h-84.039c-6.826 0-13.652-0.25-20.478 0.057-14.027 0.603-22.628 9.397-22.287 22.321 0.33 12.253 8.76 20.614 22.332 20.785 27.304 0.341 54.733 0.114 82.094 0.114h21.855c-3.413 5.631-5.688 9.682-8.316 13.561-21.263 31.9-42.879 63.516-63.357 95.78-4.016 6.291-7.213 15.927-5.267 22.378s10.683 14.539 16.644 14.71c7.497 0.205 17.941-5.017 22.344-11.263 24.71-34.983 49.614-70.035 71.138-106.94 13.186-22.64 28.635-33.243 54.323-28.248 2.617 0.512 5.415 0.068 11.377 0.068-8.874 13.368-17.213 24.426-23.789 36.405-3.413 6.314-6.826 15.37-4.733 21.274 2.275 6.439 10.489 14.278 16.769 14.903 6.963 0.683 17.065-4.221 21.616-10 13.652-17.588 25.029-36.951 37.896-55.199 2.435-3.413 7.588-7.042 11.513-7.076 56.94-0.455 113.892-0.307 173.642-0.307-4.323 4.915-6.917 8.225-9.864 11.172-36.405 36.485-72.993 72.81-109.216 109.477-5.688 5.802-10.74 7.964-18.999 6.075-20.398-4.733-41.036-8.35-61.605-12.332-14.858-2.878-25.996 3.413-28.328 15.984-2.48 13.231 4.266 22.56 19.5 26.109 13.652 3.174 27.406 5.836 44.517 12.753-10.239 8.794-20.057 18.032-30.808 26.087-2.867 2.15-8.623 1.536-12.776 0.728-49.602-9.659-99.136-19.647-148.715-29.409-15.074-2.969-25.654 3.185-28.351 15.927s4.221 22.753 19.534 26.007c39.204 8.248 78.499 15.927 117.771 23.891 3.493 0.705 6.906 1.775 13.39 3.413-17.668 17.418-33.754 33.231-49.796 49.102-7.782 7.691-15.688 15.279-23.163 23.265-10.239 10.899-10.717 22.344-1.934 31.661 9.158 9.693 21.616 9.716 32.583-1.138 23.641-23.345 46.838-47.156 72.663-73.254 3.163 14.642 5.825 26.246 8.157 37.918 5.87 29.465 11.32 59.022 17.588 88.396 1.468 6.826 4.198 14.312 8.68 19.443 6.667 7.622 16.325 8.055 25.029 2.844 9.101-5.472 12.184-13.936 10.011-24.653-8.259-40.603-16.223-81.252-24.312-121.878-0.256-1.978-0.711-3.769-1.352-5.467l0.055 0.166c-13.413-29.579 2.446-47.554 26.326-63.834 2.935 13.868 5.62 27.361 8.692 40.763 3.743 16.303 12.958 23.345 26.519 20.74 12.912-2.48 18.658-13.459 15.529-29.739-4.027-21.013-8.407-41.968-11.889-63.072-0.671-4.084 0.728-10.114 3.504-12.935 39.056-39.636 78.499-78.863 117.896-118.169 0.876-0.865 2.127-1.365 4.551-2.844 0.307 3.845 0.728 6.769 0.728 9.704 0 52.901-0.171 105.803 0.25 158.716 0.068 8.419-2.821 13.208-9.67 17.531-17.338 10.944-34.323 22.446-51.309 33.959-13.493 9.101-16.746 21.331-9.101 32.458 7.429 10.762 19.192 12.355 32.469 4.027 11.57-7.258 22.935-14.847 34.414-22.241 0.262-0.171 0.83 0.148 2.912 0.592 0 13.493 0.592 27.44-0.364 41.274-0.284 4.209-4.243 8.715-7.554 12.071q-40.353 40.956-81.15 81.377c-8.089 8.077-12.514 16.963-6.655 28.169 7.497 14.414 23.652 16.178 36.667 3.333 18.84-18.533 37.133-37.634 57.702-58.567 0.728 6.166 1.422 9.42 1.433 12.685 0.091 23.254 0 46.519 0.057 69.773 0.034 22.674 6.667 32.423 21.991 32.185 14.858-0.239 21.274-9.773 21.274-31.559v-81.411c4.107 3.185 6.94 4.949 9.249 7.247 16.212 16.041 32.207 32.298 48.464 48.294 12.628 12.423 24.881 13.39 34.608 3.151 9.192-9.693 7.964-21.798-3.743-33.641-25.711-25.893-51.195-52.014-77.555-77.236-8.339-7.964-12.184-16.007-11.206-27.395 0.853-9.875 0.182-19.875 0.182-32.776 12.093 8.055 22.128 14.79 32.185 21.434 17.748 11.775 29.852 11.377 38.032-1.138 7.964-12.321 3.538-23.379-14.437-35.393-16.303-10.887-32.833-21.434-48.783-32.81-3.413-2.412-6.644-7.713-6.678-11.707-0.41-55.643-0.262-111.286-0.193-166.929 0-1.229 0.546-2.457 1.195-5.154 2.275 1.832 4.005 2.958 5.427 4.38 38.408 38.351 76.952 76.565 114.904 115.348 3.55 3.629 5.427 11.195 4.619 16.394-3.276 21.126-7.964 42.025-12.014 63.038-2.685 13.914 3.595 25.029 15.404 27.645 13.151 2.912 23.277-3.902 26.712-18.658 3.208-13.72 5.813-27.588 9.408-44.881 11.308 11.559 21.616 21.343 30.797 32.037 1.866 2.173 0.159 7.861-0.614 11.786-9.647 49.136-19.477 98.237-29.136 147.373-3.117 15.927 3.163 26.758 16.451 29.204 12.73 2.344 22.31-4.744 25.563-20.273 8.123-38.76 15.745-77.623 23.629-116.44 0.774-3.834 1.889-7.6 3.413-13.595l63.322 63.254c3.55 3.55 6.928 7.304 10.74 10.546 10.375 8.874 21.923 8.76 30.649 0s9.249-20.649-0.228-30.569c-17.964-18.783-36.405-37.065-55.063-55.211-5.825-5.688-12.73-10.239-19.136-15.29q1.286-2.275 2.582-4.551l65.063-13.208c20.979-4.243 42.014-8.18 62.901-12.776 15.927-3.515 23.151-13.766 19.932-26.974-3.072-12.571-13.368-18.1-28.919-15.051-48.248 9.443-96.554 18.624-144.631 28.863-10.239 2.196-17.065 0.785-23.891-7.008-6.53-7.349-14.596-13.322-24.733-22.355 18.453-3.879 32.071-6.507 45.575-9.647 15.927-3.709 23.072-13.481 20.137-26.94-2.674-12.241-13.777-18.1-28.885-15.188-21.456 4.152-42.867 8.589-64.392 12.275-3.743 0.637-9.283-0.546-11.832-3.072-39.921-39.409-79.489-79.17-119.102-118.897-0.808-0.808-1.138-2.105-2.582-4.881h12.912c51.536 0 103.072 0.239 154.609-0.216 8.874-0.080 14.050 2.628 18.692 10.080 10.819 17.406 22.412 34.346 33.959 51.297 8.817 12.958 20.478 16.178 31.434 9.238 11.536-7.281 13.345-19.591 4.551-33.356-7.509-11.741-15.358-23.242-24.46-36.951 15.791 0 28.919-0.694 41.889 0.432 3.766 0.319 7.964 5.267 10.489 9.101 27.748 41.195 54.892 82.822 83.049 123.71 4.38 6.36 12.89 12.457 20.182 13.424 5.848 0.785 15.996-4.983 18.351-10.398 2.89-6.621 2.389-17.634-1.433-23.766-20.478-32.844-42.515-64.756-63.959-97.020-2.935-4.403-5.62-8.976-9.704-15.529h86.462c5.927 0 11.866 0.239 17.782-0.057 13.447-0.683 21.889-8.851 22.139-21.092 0.273-12.856-8.396-21.877-22.492-22.048-28.737-0.33-57.463-0.091-86.201-0.091h-17.713c3.276-5.29 5.404-8.953 7.747-12.514q32.185-48.396 64.38-96.701c9.773-14.79 8.578-26.917-2.969-34.642s-23.186-4.061-33.095 10.74c-27.145 40.512-54.471 80.911-80.956 121.855-5.688 8.885-11.866 12.344-22.082 11.445-9.477-0.83-19.090-0.171-31.547-0.171 8.123-12.514 15.108-23.242 22.116-33.993 10.467-16.052 9.898-27.907-1.775-35.882s-23.447-4.221-33.982 11.377c-11.468 17.008-22.549 34.278-34.403 51.001-2.457 3.413-7.554 7.122-11.456 7.156-56.963 0.455-113.926 0.307-173.107 0.307 3.197-4.073 4.972-6.894 7.27-9.204 37.361-37.463 74.631-75.006 112.435-112.014 3.686-3.606 11.092-5.893 16.2-5.119 21.138 3.22 42.094 7.884 63.061 11.945 14.79 2.867 26.007-3.413 28.373-15.927 2.514-13.22-4.255-22.605-19.454-26.166-13.652-3.163-27.429-5.813-44.562-12.73 10.239-8.794 20.034-18.032 30.717-26.087 2.878-2.162 8.623-1.593 12.753-0.796 49.602 9.659 99.125 19.659 148.704 29.431 15.12 2.981 25.632-3.083 28.442-15.927s-4.118-22.856-19.409-26.075c-39.193-8.248-78.499-15.927-117.782-23.891-3.481-0.705-6.894-1.741-13.971-3.561 16.041-15.563 30.296-29.295 44.437-43.163 9.761-9.579 19.568-19.136 28.954-29.090 10.603-11.229 10.796-23.481 1.138-32.605-9.306-8.771-21.001-8.51-31.616 1.991-23.618 23.379-46.781 47.224-71.673 72.469-1.877-5.347-3.413-8.385-4.005-11.593-7.6-37.941-14.847-75.962-22.753-113.835-1.445-6.826-4.187-14.3-8.658-19.454-6.644-7.668-16.28-8.043-25.029-2.924-9.249 5.438-12.253 13.925-10.091 24.608 8.225 40.603 16.212 81.252 24.289 121.878 0.271 1.984 0.733 3.773 1.376 5.472l-0.057-0.17c13.424 29.522-2.275 47.611-26.314 63.891-2.924-13.777-5.609-27.247-8.669-40.637-3.743-16.371-12.833-23.39-26.417-20.865-12.924 2.412-18.806 13.481-15.7 29.579 4.050 21.013 8.282 41.991 12.014 63.061 0.637 3.561 0.569 8.885-1.57 11.058-40.546 41.172-81.445 82.003-124.153 124.779-0.478-6.473-1.001-10.239-1.001-14.118 0-51.991 0.193-103.982-0.239-155.974-0.068-8.407 2.708-13.231 9.591-17.566 17.338-10.933 34.335-22.435 51.297-33.971 13.595-9.249 16.837-21.263 9.261-32.423s-19.625-12.514-33.607-3.413c-11.354 7.418-22.594 15.006-36.235 24.107 0-16.86-0.512-31.218 0.341-45.507 0.228-3.754 4.232-7.702 7.292-10.785 27.304-27.554 54.87-54.779 82.048-82.424 14.096-14.346 9.716-35.415-8.476-37.952-7.145-0.99-16.928 3.413-22.753 8.487-16.36 14.482-31.24 30.626-46.769 46.064-3.072 3.060-6.416 5.848-11.854 10.751 0-31.695 0-60.66 0-89.625 0-12.514-4.881-21.388-17.668-23.891-14.278-2.833-25.381 6.906-25.563 22.696-0.341 29.181-0.102 58.362-0.102 89.807-3.959-2.992-6.826-4.676-9.044-6.917-16.53-16.36-32.822-32.992-49.443-49.249-11.809-11.638-24.073-12.344-33.538-2.617s-8.305 21.889 3.356 33.641c25.381 25.575 50.581 51.343 76.588 76.223 8.919 8.544 13.777 17.065 12.355 29.648-1.058 9.443-0.205 19.090-0.205 31.616-12.981-8.589-24.118-16.041-35.336-23.345-14.949-9.738-26.883-8.692-34.653 2.89s-4.039 23.277 10.592 33.129c17.384 11.718 34.995 23.117 52.162 35.131 3.22 2.275 6.906 6.746 6.928 10.239 0.432 57.372 0.307 114.756 0.307 174.597-4.551-3.845-7.622-6.075-10.239-8.715-36.815-36.724-73.436-73.63-110.467-110.126-5.825-5.688-7.861-10.853-5.973-19.044 4.687-20.398 8.339-41.036 12.332-61.593 2.753-14.175-3.060-25.154-14.721-28.089-13.322-3.345-23.777 3.811-27.418 19.409-3.197 13.652-5.802 27.395-12.674 44.437-8.806-10.239-18.066-20.023-26.166-30.717-2.15-2.867-1.57-8.623-0.762-12.765 9.659-49.591 19.659-99.125 29.42-148.704 2.981-15.097-3.117-25.666-15.87-28.442s-22.89 4.175-26.098 19.443c-8.248 39.193-15.927 78.499-23.891 117.771-0.705 3.481-1.752 6.894-3.413 13.515-15.484-15.757-29.34-29.909-43.231-43.982-9.613-9.727-19.147-19.568-29.090-28.954-11.263-10.637-23.413-10.819-32.583-1.138-8.806 9.329-8.544 21.013 1.934 31.604 23.379 23.629 47.19 46.815 72.378 71.673-5.267 1.843-8.316 3.333-11.525 3.97-37.952 7.611-75.996 14.79-113.857 22.833-7.213 1.536-16.587 4.426-19.886 9.807-3.777 6.166-4.448 16.746-1.866 23.698 3.606 9.75 13.447 12.332 24.164 10.171 49.079-9.898 98.294-19.17 147.271-29.579 9.864-2.105 16.121-0.398 22.753 6.735s14.938 13.197 22.492 19.716z" />
<glyph unicode="&#xe907;" glyph-name="sun" d="M0 458.672c13.221 5.222 26.282 14.438 39.685 14.973 46.841 1.855 93.796 0.398 140.706 0.865 19.205 0.182 34.827-5.347 34.36-26.635-0.466-20.889-16.691-26.68-35.384-26.658-47.706 0.080-95.469-1.195-143.095 0.865-12.31 0.535-24.189 11.378-36.272 17.408zM503.49-63.977c-6.087 13.653-16.702 27.113-17.419 41.050-2.276 44.372-0.978 89.018-0.705 133.549 0 7.816-0.887 18.204 3.413 22.857 7.191 7.759 20.172 18.113 27.306 15.985 9.102-2.719 20.798-16.509 21.162-25.929 2.014-53.19 1.718-106.528 0.273-159.763-0.25-9.375-9.705-18.511-14.905-27.75zM512.193 689.784c134.71 0 241.647-106.949 241.59-241.613 0-0.17 0.001-0.371 0.001-0.572 0-132.718-107.241-240.39-239.795-241.086h-0.066c-134.016-1.138-244.617 109.44-243.411 243.479 0.736 132.592 108.392 239.793 241.086 239.793 0.209 0 0.419 0 0.628-0.001h-0.033zM700.719 448.649c0 0.106 0 0.232 0 0.357 0 103.68-84.049 187.729-187.729 187.729-0.468 0-0.936-0.002-1.403-0.005h0.072c-104.377-0.546-188.651-85.593-187.923-189.663 0.705-102.83 85.718-187.376 188.321-187.308 0.003 0 0.007 0 0.012 0 104.189 0 188.651 84.462 188.651 188.651 0 0.084 0 0.168 0 0.252v-0.013zM538.316 854.041c0-26.328 0.057-52.644 0-78.971-0.057-16.725-7.475-27.966-25.031-28.74-17.806-0.774-27.124 10.9-27.408 26.771q-1.399 80.143 0.057 160.309c0.284 16.167 10.968 27.534 27.909 26.532 16.702-1.001 24.814-12.14 24.587-29.32-0.353-25.531-0.114-51.062-0.114-76.582zM917.29 474.328c25.52 0 51.051-0.33 76.571 0.125 17.066 0.307 28.762-7.168 30.014-23.893 1.365-18.204-10.831-28.603-28.091-28.876q-78.949-1.229-157.931 0.068c-15.849 0.25-27.932 8.931-27.511 26.749 0.455 18.989 12.731 25.918 30.367 25.838 25.52-0.091 51.051-0.011 76.582-0.011zM244.31 689.215c-9.568 5.291-17.533 7.771-22.835 12.959-34.269 33.507-67.969 67.594-101.806 101.533-12.402 12.424-16.054 27.022-3.413 40.22 13.812 14.438 28.762 9.898 41.835-3.174 33.325-33.325 67.446-65.91 99.326-100.566 6.963-7.566 8.806-22.892 7.373-33.916-0.831-6.36-12.959-11.218-20.48-17.055zM918.007 67.661c-4.688-6.201-8.522-16.406-15.030-18.579-8.613-2.879-22.983-3.413-28.558 1.866-38.422 36.033-76.025 73.055-111.648 111.83-5.62 6.11-3.891 25.793 1.968 33.461 4.631 6.064 25.69 8.624 31.061 3.652 39.821-36.772 77.708-75.683 115.744-114.367 3.459-3.516 3.789-10.103 6.462-17.863zM920.271 827.748c-6.553-10.172-10.388-18.978-16.657-25.406-32.324-33.143-65.307-65.66-98.006-98.461-13.084-13.118-28.33-17.442-41.972-3.573-12.606 12.8-9.17 27.75 3.288 40.22 33.86 33.894 67.127 68.436 102.204 101.010 7.134 6.622 21.697 8.874 31.914 7.27 6.781-1.058 11.924-12.572 19.228-21.060zM132.719 42.744c-6.497 4.824-17.328 8.818-19.922 15.849-3.083 8.328-2.844 22.835 2.503 28.512 36.090 38.342 73.169 75.877 111.989 111.42 5.962 5.45 26.885 3.561 32.995-2.662s7.555-27.010 1.968-33.074c-35.612-38.763-73.601-75.353-111.204-112.262-3.629-3.527-9.967-4.335-18.329-7.782z" />
<glyph unicode="&#xe908;" glyph-name="tools" horiz-adv-x="1039" d="M514.123 324.688c4.028 4.732 6.382 7.928 9.152 10.687 38.938 38.742 77.992 77.426 121.846 121.038 32.383-34.183 66.405-67.282 96.941-103.346 18.915-22.354 37.553-26.682 66.139-22.146 74.137 11.748 135.625-16.226 180.957-74.599 45.62-58.765 52.498-125.25 26.682-194.748-8.782-23.67-16.422-25.043-34.195-7.513-37.98 37.438-75.083 75.776-113.514 112.729-29.336 28.228-72.706 17.115-82.596-20.265-5.332-20.173 3.058-36.053 17.046-49.994q54.945-54.737 109.636-109.751c18.927-19.1 17.876-26.186-7.213-35.626-70.502-26.52-137.784-18.961-196.41 28.448-61.512 49.717-85.32 116.353-70.329 194.483 3.347 17.449-0.185 27.882-12.372 39.596-37.692 36.249-74.252 73.618-111.771 111.009zM511.573 584.93l-129.832-129.705c-32.764 33.387-66.393 66.832-98.938 101.304-10.387 11.044-19.354 14.264-35.291 11.252-150.975-28.505-272.982 102.308-232.394 248.124 2.264 8.074 4.765 14.879 7.722 21.433l-0.383-0.948c9.625 21.754 16.342 23.335 32.995 6.924 38.003-37.472 75.233-75.718 113.606-112.81 29.636-28.667 72.175-18.8 83.093 18.465 5.874 20.104-2.1 36.261-16.041 50.236q-54.806 54.968-109.636 109.89c-19.977 20.092-19.042 26.901 7.963 36.768 71.887 26.278 139.065 15.868 198.245-32.314 60.692-49.463 80.531-115.406 66.566-191.182-3.266-17.726 0.946-28.148 13.006-39.642 33.733-32.141 66.497-65.297 99.319-97.795zM912.518 559.182c-22.377 17.311-43.058 33.964-64.628 49.417-6.186 4.443-14.76 5.955-22.493 7.744-19.273 4.466-38.684 8.332-64.628 13.849l-289.831-292.947-69.913 72.821 296.917 296.156c-18.003 19.169-16.584 36.076-7.617 56.953 16.157 37.542-0.623 69.671-26.416 96.722-37.242 39.077-86.22 55.337-137.333 66.497-9.833 2.147-19.619 4.201-29.521 6.29-0.312 2.4-0.612 4.789-0.923 7.19 12.383 3.728 24.558 8.54 37.184 10.975 58.523 11.264 113.56-3.543 163.738-30.871 94.010-51.056 178.453-114.252 231.482-210.882 6.44-11.737 8.655-25.747 13.26-38.546 6.797-18.927 13.976-37.715 22.193-59.792 11.541 9.394 17.38 18.015 23.797 18.465 13.168 1.004 29.417 1.743 39.354-4.916 13.964-9.359 15.303-27.928 3.393-40.762-26.913-29.025-54.968-57.126-84.247-83.82-12.602-11.541-31.564-11.021-41.108 3.012-6.659 9.798-4.836 26.001-4.801 39.33 0.104 4.559 6.22 9.071 12.141 17.115zM448.377 305.566c-5.99-9.729-9.844-18.65-15.995-25.539q-143.646-160.957-287.904-321.407c-19.942-22.181-31.587-22.4-52.452-1.731q-38.777 38.43-76.872 77.553c-20.092 20.623-20.45 31.852 0.415 50.663q162.065 146.104 324.776 291.493c16.434 14.737 32.891 15.672 49.048-0.75 14.749-15.003 30.167-29.348 44.212-44.951 6.093-6.786 9.429-15.938 14.772-25.332z" />
<glyph unicode="&#xe909;" glyph-name="video-camera" horiz-adv-x="1434" d="M1433.594 883.207v-870.398q0-33.594-31.205-47.197c-5.909-2.451-12.765-3.917-19.952-4.014h-0.038c-0.344-0.009-0.749-0.014-1.154-0.014-13.756 0-26.145 5.849-34.817 15.196l-0.028 0.030-322.399 322.399v-132.799q0-95.207-67.602-162.808t-162.808-67.602h-563.195q-95.207 0-162.793 67.602t-67.602 162.808v563.195q0 95.191 67.602 162.793t162.793 67.602h563.195q95.238 0 162.808-67.602t67.602-162.793v-132.002l322.399 321.603c8.714 9.368 21.11 15.209 34.871 15.209 0.397 0 0.792-0.005 1.187-0.015l-0.058 0.001c7.225-0.101 14.081-1.56 20.362-4.133l-0.372 0.135q31.205-13.619 31.205-47.197z" />
<glyph unicode="&#xe90a;" glyph-name="khs-city" horiz-adv-x="1152" d="M1116.388 172.18l-187.707 216.839-191.803-216.839v389.84l-161.455 397.98-169.596-396.892v-204.168h-306.872l-96.855-186.76h-2.099v-236.18h1151.971v276.473l-35.583-40.293zM952.245 921.742l7.654-159.74 75.198 59.467-64.395-69.016 181.269-6.72-181.269-6.733 69.093-70.501-79.896 60.952-7.654-159.727-7.629 159.727-82.468-63.346 71.691 72.894-181.269 6.733 181.269 6.72-70.462 65.944 81.24-56.395 7.629 159.74z" />
<glyph unicode="&#xe90b;" glyph-name="khs-star" horiz-adv-x="1162" d="M580.84 960l22.269-464.654 218.753 172.988-187.305-200.795 527.304-19.532-527.304-19.584 200.976-205.081-232.424 177.287-22.269-464.628-22.192 464.628-239.899-184.271 208.554 212.066-527.304 19.584 527.304 19.532-204.978 191.836 236.323-164.029 22.192 464.654z" />
<glyph unicode="&#xe90c;" glyph-name="arrow-down" d="M316 572.667l196-196 196 196 60-60-256-256-256 256z" />
<glyph unicode="&#xe90d;" glyph-name="arrow-left" d="M658 230.667l-60-60-256 256 256 256 60-60-196-196z" />
<glyph unicode="&#xe90e;" glyph-name="arrow-right" d="M366 230.667l196 196-196 196 60 60 256-256-256-256z" />
<glyph unicode="&#xe90f;" glyph-name="arrow-up" d="M316 280.667l-60 60 256 256 256-256-60-60-196 196z" />
<glyph unicode="&#xe910;" glyph-name="desktop" horiz-adv-x="1097" d="M1024 384v475.429c0 9.714-8.571 18.286-18.286 18.286h-914.286c-9.714 0-18.286-8.571-18.286-18.286v-475.429c0-9.714 8.571-18.286 18.286-18.286h914.286c9.714 0 18.286 8.571 18.286 18.286zM1097.143 859.428v-621.714c0-50.286-41.143-91.429-91.429-91.429h-310.857c0-48.571 36.571-89.714 36.571-109.714s-16.571-36.571-36.571-36.571h-292.571c-20 0-36.571 16.571-36.571 36.571 0 21.143 36.571 60 36.571 109.714h-310.857c-50.286 0-91.429 41.143-91.429 91.429v621.714c0 50.286 41.143 91.429 91.429 91.429h914.286c50.286 0 91.429-41.143 91.429-91.429z" />
<glyph unicode="&#xe942;" glyph-name="phone" d="M704 320c-64-64-64-128-128-128s-128 64-192 128-128 128-128 192 64 64 128 128-128 256-192 256-192-192-192-192c0-128 131.5-387.5 256-512s384-256 512-256c0 0 192 128 192 192s-192 256-256 192z" />
<glyph unicode="&#xe947;" glyph-name="location" d="M512 960c-176.732 0-320-143.268-320-320 0-320 320-704 320-704s320 384 320 704c0 176.732-143.27 320-320 320zM512 448c-106.040 0-192 85.96-192 192s85.96 192 192 192 192-85.96 192-192-85.96-192-192-192z" />
<glyph unicode="&#xe94b;" glyph-name="map-full" d="M0 768l320 128v-768l-320-128zM384 928l320-192v-736l-320 160zM768 736l256 192v-768l-256-192z" />
<glyph unicode="&#xe94c;" glyph-name="map" d="M672 768l-320 128-352-128v-768l352 128 320-128 352 128v768l-352-128zM384 814.27l256-102.4v-630.138l-256 102.398v630.14zM64 723.172l256 93.090v-631.8l-256-93.088v631.798zM960 172.828l-256-93.092v631.8l256 93.090v-631.798z" />
<glyph unicode="&#xe954;" glyph-name="printer" d="M256 896h512v-128h-512v128zM960 704h-896c-35.2 0-64-28.8-64-64v-320c0-35.2 28.794-64 64-64h192v-256h512v256h192c35.2 0 64 28.8 64 64v320c0 35.2-28.8 64-64 64zM128 512c-35.346 0-64 28.654-64 64s28.654 64 64 64 64-28.654 64-64-28.652-64-64-64zM704 64h-384v320h384v-320z" />
<glyph unicode="&#xe9d7;" glyph-name="star-empty" d="M1024 562.95l-353.78 51.408-158.22 320.582-158.216-320.582-353.784-51.408 256-249.538-60.432-352.352 316.432 166.358 316.432-166.358-60.434 352.352 256.002 249.538zM512 206.502l-223.462-117.48 42.676 248.83-180.786 176.222 249.84 36.304 111.732 226.396 111.736-226.396 249.836-36.304-180.788-176.222 42.678-248.83-223.462 117.48z" />
<glyph unicode="&#xea91;" glyph-name="facebook" d="M928 960h-832c-52.8 0-96-43.2-96-96v-832c0-52.8 43.2-96 96-96h416v448h-128v128h128v64c0 105.8 86.2 192 192 192h128v-128h-128c-35.2 0-64-28.8-64-64v-64h192l-32-128h-160v-448h288c52.8 0 96 43.2 96 96v832c0 52.8-43.2 96-96 96z" />
<glyph unicode="&#xea92;" glyph-name="instagram" d="M512 867.8c136.8 0 153-0.6 206.8-3 50-2.2 77-10.6 95-17.6 23.8-9.2 41-20.4 58.8-38.2 18-18 29-35 38.4-58.8 7-18 15.4-45.2 17.6-95 2.4-54 3-70.2 3-206.8s-0.6-153-3-206.8c-2.2-50-10.6-77-17.6-95-9.2-23.8-20.4-41-38.2-58.8-18-18-35-29-58.8-38.4-18-7-45.2-15.4-95-17.6-54-2.4-70.2-3-206.8-3s-153 0.6-206.8 3c-50 2.2-77 10.6-95 17.6-23.8 9.2-41 20.4-58.8 38.2-18 18-29 35-38.4 58.8-7 18-15.4 45.2-17.6 95-2.4 54-3 70.2-3 206.8s0.6 153 3 206.8c2.2 50 10.6 77 17.6 95 9.2 23.8 20.4 41 38.2 58.8 18 18 35 29 58.8 38.4 18 7 45.2 15.4 95 17.6 53.8 2.4 70 3 206.8 3zM512 960c-139 0-156.4-0.6-211-3-54.4-2.4-91.8-11.2-124.2-23.8-33.8-13.2-62.4-30.6-90.8-59.2-28.6-28.4-46-57-59.2-90.6-12.6-32.6-21.4-69.8-23.8-124.2-2.4-54.8-3-72.2-3-211.2s0.6-156.4 3-211c2.4-54.4 11.2-91.8 23.8-124.2 13.2-33.8 30.6-62.4 59.2-90.8 28.4-28.4 57-46 90.6-59 32.6-12.6 69.8-21.4 124.2-23.8 54.6-2.4 72-3 211-3s156.4 0.6 211 3c54.4 2.4 91.8 11.2 124.2 23.8 33.6 13 62.2 30.6 90.6 59s46 57 59 90.6c12.6 32.6 21.4 69.8 23.8 124.2 2.4 54.6 3 72 3 211s-0.6 156.4-3 211c-2.4 54.4-11.2 91.8-23.8 124.2-12.6 34-30 62.6-58.6 91-28.4 28.4-57 46-90.6 59-32.6 12.6-69.8 21.4-124.2 23.8-54.8 2.6-72.2 3.2-211.2 3.2v0zM512 711c-145.2 0-263-117.8-263-263s117.8-263 263-263 263 117.8 263 263c0 145.2-117.8 263-263 263zM512 277.4c-94.2 0-170.6 76.4-170.6 170.6s76.4 170.6 170.6 170.6c94.2 0 170.6-76.4 170.6-170.6s-76.4-170.6-170.6-170.6zM846.8 721.4c0-33.91-27.49-61.4-61.4-61.4s-61.4 27.49-61.4 61.4c0 33.91 27.49 61.4 61.4 61.4s61.4-27.49 61.4-61.4z" />
</font>
</defs>
</svg>
